GloDLS.to - Download Movies, TV, Games and Other Torrents Free RSS 2.0enGloDLS.to - Download Movies, TV, Games and Other Torrents FreeGloDLS.to - Download Movies, TV, Games and Other Torrents Free RSS Feedhttp://glodls.toCopyright GloDLS.to - Download Movies, TV, Games and Other Torrents FreeFri, 22 Sep 2017 18:03:42 +0100 [SexAndSubmission]Natasha Blu, Dee Williams - Homewrecker 2 The Ranchers Daughter http://glodls.to/torrent.php?id=2811670 http://glodls.to/torrent.php?id=2811670 Fri, 22 Sep 2017 17:03:03 +0100 Adult XXX [center][URL=http://imagedecode.com/img-59c54025950e0.html][IMG]http://imagedecode.com/upload/small/2017/09/22/59c54025950a2.jpeg[/IMG][/URL]
[size=4]

Natasha Blu, Dee Williams - Homewrecker 2: The Ranchers Daughter
Category: Rough Sex, Anal, Deep Throating, Hardcore, BDSM
File size: 566 MB
Duration: 00:51:40

[b]SCREENS:[/b]

[url]http://imagedecode.com/img-59c54030f34c5.html[/url]
[url]https://img.yt/img-59c5404ca6f4e.html[/url]

[b]SHOOT:[/b]
[url]http://imgclick.net/qemaf2dnntjx/vlcsnap-2017-09-22-19h58m49s359.png.html[/url]
[/size]
[/center] ]]>
Nathan For You S04E00 A Celebration HDTV x264-YesTV http://glodls.to/torrent.php?id=2811625 http://glodls.to/torrent.php?id=2811625 Fri, 22 Sep 2017 17:00:14 +0100 TV http://www.tvrage.com/schedule.php?show_yesterday=1. ]]> Nathan For You S04E00 A Celebration 720p HDTV x264-YesTV http://glodls.to/torrent.php?id=2811624 http://glodls.to/torrent.php?id=2811624 Fri, 22 Sep 2017 17:00:12 +0100 TV http://www.tvrage.com/schedule.php?show_yesterday=1. ]]> James Corden 2017 09 21 Judi Dench 720p HDTV x264-CROOKS http://glodls.to/torrent.php?id=2811623 http://glodls.to/torrent.php?id=2811623 Fri, 22 Sep 2017 17:00:10 +0100 TV http://www.tvrage.com/schedule.php?show_yesterday=1. ]]> James Corden 2017 09 21 Judi Dench HDTV x264-CROOKS http://glodls.to/torrent.php?id=2811622 http://glodls.to/torrent.php?id=2811622 Fri, 22 Sep 2017 17:00:07 +0100 TV http://www.tvrage.com/schedule.php?show_yesterday=1. ]]> [Lubed] Alex Blake - Caught In Her Net (19 09 2017) http://glodls.to/torrent.php?id=2811621 http://glodls.to/torrent.php?id=2811621 Fri, 22 Sep 2017 16:59:05 +0100 Adult XXX
Genre :- [Oral, All sex] 480p

Screenshot :-

[url=http://imgtorrnt.in/view.php?id=k5tzIbh][color=green] http://imgtorrnt.in/view.php?id=k5tzIbh [/color] [/url]

[url=http://imgtorrnt.in/view.php?id=TvaZd2N][color=green] http://imgtorrnt.in/view.php?id=TvaZd2N [/color] [/url]

[img]http://s4.pic4you.ru/y2017/09-19/27034/6107480.jpeg[/img]


BTC Address - 1J6iRHTWiXg2Gjhg7ggtBrY87buscQ5ngB

]]>
[StunningButts - CumLouder] Blondie Fesser - We Lub Blondie s Bum (18 09 2017) http://glodls.to/torrent.php?id=2811620 http://glodls.to/torrent.php?id=2811620 Fri, 22 Sep 2017 16:55:58 +0100 Adult XXX
Genre :- [Big Ass, Huge Boobs, Big Tits, Busty Blonde, Big Ass Latina, Oiled, All Sex] 404p

Screenshot :-

[url=http://imgtorrnt.in/view.php?id=8qNht0Z][color=green] http://imgtorrnt.in/view.php?id=8qNht0Z [/color] [/url]

[url=http://imgtorrnt.in/view.php?id=qmp1vlH][color=green] http://imgtorrnt.in/view.php?id=qmp1vlH [/color] [/url]

[img]http://s4.pic4you.ru/y2017/09-19/27034/6107476.jpeg[/img]


BTC Address - 1J6iRHTWiXg2Gjhg7ggtBrY87buscQ5ngB

]]>
Bhoomi 2017 Pre - DvD Rip x264 AAC http://glodls.to/torrent.php?id=2811619 http://glodls.to/torrent.php?id=2811619 Fri, 22 Sep 2017 16:54:12 +0100 Movies [img]http://keepimg.com/images/MV5BNTE0Njg2NGQtOTZhMC00MDkyLWE2M2QtNjE5NDYwYjNjYjBjXkEyXkFqcGdeQXVyNjcyNjMzMjQ._V1_QL50_.jpg[/img]

[color=#ff0000]V[/color][color=#ff0000]i[/color][color=#fe0000]d[/color][color=#fe0000]e[/color][color=#fd0000]o[/color]
[color=#fd0000]F[/color][color=#fd0000]o[/color][color=#fc0000]r[/color][color=#fc0000]m[/color][color=#fc0000]a[/color][color=#fb0101]t[/color][color=#fb0101].[/color][color=#fa0101].[/color][color=#fa0101].[/color][color=#fa0101].[/color][color=#f90101].[/color][color=#f90101].[/color][color=#f80101].[/color][color=#f80101].[/color][color=#f80101].[/color][color=#f70101].[/color][color=#f70101].[/color][color=#f70101]M[/color][color=#f60101]a[/color][color=#f60101]t[/color][color=#f50101]r[/color][color=#f50101]o[/color][color=#f50101]s[/color][color=#f40202]k[/color][color=#f40202]a[/color]
[color=#f30202]C[/color][color=#f30202]o[/color][color=#f30202]d[/color][color=#f20202]e[/color][color=#f20202]c[/color][color=#f10202].[/color][color=#f10202].[/color][color=#f10202].[/color][color=#f00202].[/color][color=#f00202].[/color][color=#f00202].[/color][color=#ef0202].[/color][color=#ef0202].[/color][color=#ee0202].[/color][color=#ee0202].[/color][color=#ee0202].[/color][color=#ed0303].[/color][color=#ed0303]V[/color][color=#ec0303]_[/color][color=#ec0303]M[/color][color=#ec0303]P[/color][color=#eb0303]E[/color][color=#eb0303]G[/color][color=#eb0303]-[/color][color=#ea0303]4[/color] [color=#e90303]/[/color] [color=#e90303]A[/color][color=#e80303]V[/color][color=#e80303]C[/color] [color=#e70303]/[/color] [color=#e60404]H[/color][color=#e60404]2[/color][color=#e60404]6[/color][color=#e50404]4[/color]
[color=#e50404]D[/color][color=#e40404]u[/color][color=#e40404]r[/color][color=#e40404]a[/color][color=#e30404]t[/color][color=#e30404]i[/color][color=#e20404]o[/color][color=#e20404]n[/color][color=#e20404].[/color][color=#e10404].[/color][color=#e10404].[/color][color=#e10404].[/color][color=#e00404].[/color][color=#e00404].[/color][color=#df0505].[/color][color=#df0505].[/color][color=#df0505].[/color][color=#de0505].[/color][color=#de0505]1[/color] [color=#dd0505]h[/color] [color=#dc0505]1[/color][color=#dc0505]1[/color] [color=#db0505]m[/color][color=#db0505]i[/color][color=#da0505]n[/color]
[color=#da0505]B[/color][color=#da0505]i[/color][color=#d90505]t[/color] [color=#d80606]r[/color][color=#d80606]a[/color][color=#d80606]t[/color][color=#d70606]e[/color][color=#d70606].[/color][color=#d60606].[/color][color=#d60606].[/color][color=#d60606].[/color][color=#d50606].[/color][color=#d50606].[/color][color=#d50606].[/color][color=#d40606].[/color][color=#d40606].[/color][color=#d30606].[/color][color=#d30606].[/color][color=#d30606].[/color][color=#d20606]1[/color][color=#d20606]2[/color][color=#d10707]8[/color][color=#d10707]5[/color] [color=#d00707]k[/color][color=#d00707]b[/color] [color=#cf0707]/[/color] [color=#ce0707]s[/color]
[color=#ce0707]W[/color][color=#ce0707]i[/color][color=#cd0707]d[/color][color=#cd0707]t[/color][color=#cc0707]h[/color][color=#cc0707].[/color][color=#cc0808].[/color][color=#cb0808].[/color][color=#cb0808].[/color][color=#ca0808].[/color][color=#ca0808].[/color][color=#c90808].[/color][color=#c90808].[/color][color=#c90808].[/color][color=#c80808].[/color][color=#c80808].[/color][color=#c70808].[/color][color=#c70808].[/color][color=#c70909].[/color][color=#c60909]7[/color][color=#c60909]2[/color][color=#c50909]0[/color] [color=#c50909]p[/color][color=#c40909]i[/color][color=#c40909]x[/color][color=#c30909]e[/color][color=#c30909]l[/color][color=#c20909]s[/color]
[color=#c20a0a]H[/color][color=#c20a0a]e[/color][color=#c10a0a]i[/color][color=#c10a0a]g[/color][color=#c00a0a]h[/color][color=#c00a0a]t[/color][color=#c00a0a].[/color][color=#bf0a0a].[/color][color=#bf0a0a].[/color][color=#be0a0a].[/color][color=#be0a0a].[/color][color=#bd0a0a].[/color][color=#bd0b0b].[/color][color=#bd0b0b].[/color][color=#bc0b0b].[/color][color=#bc0b0b].[/color][color=#bb0b0b].[/color][color=#bb0b0b].[/color][color=#bb0b0b].[/color][color=#ba0b0b]3[/color][color=#ba0b0b]2[/color][color=#b90b0b]2[/color] [color=#b90c0c]p[/color][color=#b80c0c]i[/color][color=#b80c0c]x[/color][color=#b70c0c]e[/color][color=#b70c0c]l[/color][color=#b60c0c]s[/color]
[color=#b60c0c]F[/color][color=#b60c0c]r[/color][color=#b50c0c]a[/color][color=#b50c0c]m[/color][color=#b40c0c]e[/color] [color=#b40d0d]r[/color][color=#b30d0d]a[/color][color=#b30d0d]t[/color][color=#b20d0d]e[/color][color=#b20d0d].[/color][color=#b20d0d].[/color][color=#b10d0d].[/color][color=#b10d0d].[/color][color=#b00d0d].[/color][color=#b00d0d].[/color][color=#af0d0d].[/color][color=#af0e0e]2[/color][color=#af0e0e]3[/color][color=#ae0e0e].[/color][color=#ae0e0e]9[/color][color=#ad0e0e]7[/color][color=#ad0e0e]0[/color][color=#ad0e0e]4[/color] [color=#ac0e0e]F[/color][color=#ab0e0e]P[/color][color=#ab0e0e]S[/color]
[color=#ab0f0f]W[/color][color=#aa0f0f]r[/color][color=#aa0f0f]i[/color][color=#a90f0f]t[/color][color=#a90f0f]i[/color][color=#a80f0f]n[/color][color=#a80f0f]g[/color] [color=#a70f0f]C[/color][color=#a70f0f]o[/color][color=#a60f0f]d[/color][color=#a60f0f]e[/color][color=#a61010]c[/color][color=#a51010].[/color][color=#a51010].[/color][color=#a41010].[/color][color=#a41010].[/color][color=#a31010]x[/color][color=#a31010]2[/color][color=#a31010]6[/color][color=#a21010]4[/color]

[color=#a11010]A[/color][color=#a11111]u[/color][color=#a11111]d[/color][color=#a01111]i[/color][color=#a01111]o[/color][color=#9f1111]#[/color][color=#9f1111]#[/color]
[color=#9f1111]F[/color][color=#9e1111]o[/color][color=#9e1111]r[/color][color=#9d1111]m[/color][color=#9d1111]a[/color][color=#9c1111]t[/color][color=#9c1212].[/color][color=#9c1212].[/color][color=#9b1212].[/color][color=#9b1212].[/color][color=#9a1212].[/color][color=#9a1212].[/color][color=#9a1212].[/color][color=#9a1212].[/color][color=#9a1212].[/color][color=#9a1212].[/color][color=#9b1212].[/color][color=#9b1212].[/color][color=#9b1212]A[/color][color=#9b1212]A[/color][color=#9b1212]C[/color]
[color=#9b1212]C[/color][color=#9b1212]o[/color][color=#9b1212]d[/color][color=#9c1212]e[/color][color=#9c1212]c[/color][color=#9c1212].[/color][color=#9c1111].[/color][color=#9c1111].[/color][color=#9c1111].[/color][color=#9c1111].[/color][color=#9c1111].[/color][color=#9c1111].[/color][color=#9d1111].[/color][color=#9d1111].[/color][color=#9d1111].[/color][color=#9d1111].[/color][color=#9d1111].[/color][color=#9d1111].[/color][color=#9d1111]A[/color][color=#9d1111]A[/color][color=#9e1111]C[/color] [color=#9e1111]/[/color] [color=#9e1111]m[/color][color=#9e1111]p[/color][color=#9e1111]4[/color][color=#9e1111]a[/color]
[color=#9e1111]C[/color][color=#9f1111]h[/color][color=#9f1111]a[/color][color=#9f1111]n[/color][color=#9f1111]n[/color][color=#9f1111]e[/color][color=#9f1111]l[/color][color=#9f1111].[/color][color=#9f1111].[/color][color=#a01111].[/color][color=#a01010].[/color][color=#a01010].[/color][color=#a01010].[/color][color=#a01010].[/color][color=#a01010].[/color][color=#a01010].[/color][color=#a01010].[/color][color=#a01010].[/color][color=#a11010]2[/color][color=#a11010].[/color][color=#a11010]0[/color]
[color=#a11010]B[/color][color=#a11010]i[/color][color=#a11010]t[/color] [color=#a11010]R[/color][color=#a21010]a[/color][color=#a21010]t[/color][color=#a21010]e[/color][color=#a21010].[/color][color=#a21010].[/color][color=#a21010].[/color][color=#a21010].[/color][color=#a21010].[/color][color=#a31010].[/color][color=#a31010].[/color][color=#a31010].[/color][color=#a31010].[/color][color=#a31010].[/color][color=#a31010].[/color][color=#a31010].[/color][color=#a31010]9[/color][color=#a30f0f]6[/color]
[color=#a40f0f]S[/color][color=#a40f0f]a[/color][color=#a40f0f]m[/color][color=#a40f0f]p[/color][color=#a40f0f]l[/color][color=#a40f0f]e[/color] [color=#a40f0f]r[/color][color=#a50f0f]a[/color][color=#a50f0f]t[/color][color=#a50f0f]e[/color][color=#a50f0f].[/color][color=#a50f0f].[/color][color=#a50f0f].[/color][color=#a50f0f].[/color][color=#a50f0f].[/color][color=#a50f0f]4[/color][color=#a60f0f]4[/color][color=#a60f0f]1[/color][color=#a60f0f]0[/color][color=#a60f0f]0[/color][color=#a60f0f].[/color][color=#a60f0f]0[/color] [color=#a60f0f]H[/color][color=#a70f0f]z[/color]
[color=#a70f0f]L[/color][color=#a70f0f]a[/color][color=#a70f0f]n[/color][color=#a70f0f]g[/color][color=#a70f0f]u[/color][color=#a70e0e]a[/color][color=#a70e0e]g[/color][color=#a70e0e]e[/color][color=#a80e0e].[/color][color=#a80e0e].[/color][color=#a80e0e].[/color][color=#a80e0e].[/color][color=#a80e0e].[/color][color=#a80e0e].[/color][color=#a80e0e].[/color][color=#a80e0e].[/color][color=#a90e0e]H[/color][color=#a90e0e]i[/color][color=#a90e0e]n[/color][color=#a90e0e]d[/color][color=#a90e0e]i[/color]

[img]http://keepimg.com/images/screenshot_0541b561985f098e29.png[/img]
[img]http://keepimg.com/images/screenshot_03d9ecbb01c1ea5acd.png[/img]
[img]http://keepimg.com/images/screenshot_074747be71b726cd60.png[/img]
[url=http://imgchili.net/show/111993/111993714_screenshot_02.png][img]http://t13.imgchili.net/111993/111993714_screenshot_02.jpg[/img][/url]
[url=http://imgchili.net/show/111993/111993635_screenshot_06.png][img]http://t13.imgchili.net/111993/111993635_screenshot_06.jpg[/img][/url]
[url=http://imgchili.net/show/111993/111993610_screenshot_01.png][img]http://t13.imgchili.net/111993/111993610_screenshot_01.jpg[/img][/url]


[/center] ]]>
Haseena Parkar 2017 PreDvD Rip x264 AAC http://glodls.to/torrent.php?id=2811618 http://glodls.to/torrent.php?id=2811618 Fri, 22 Sep 2017 16:53:15 +0100 Movies [img]http://keepimg.com/images/MV5BM2VkYTVkOGUtMDA2ZS00ODNiLTlmNmEtZDhiZDM1MTlmM2IyXkEyXkFqcGdeQXVyNjY1MTg4Mzc._V1_QL50_SY1000_CR006261000_AL_.jpg[/img]
[color=#ff0000]V[/color][color=#fe0000]i[/color][color=#fe0000]d[/color][color=#fd0000]e[/color][color=#fd0000]o[/color]
[color=#fc0101]F[/color][color=#fc0101]o[/color][color=#fb0101]r[/color][color=#fb0101]m[/color][color=#fa0101]a[/color][color=#fa0101]t[/color][color=#f90101].[/color][color=#f90101].[/color][color=#f80101].[/color][color=#f80101].[/color][color=#f70202].[/color][color=#f70202].[/color][color=#f60202].[/color][color=#f60202].[/color][color=#f50202].[/color][color=#f50202].[/color][color=#f40202].[/color][color=#f40202]M[/color][color=#f30202]a[/color][color=#f30202]t[/color][color=#f20303]r[/color][color=#f20303]o[/color][color=#f10303]s[/color][color=#f10303]k[/color][color=#f00303]a[/color]
[color=#f00303]C[/color][color=#ef0303]o[/color][color=#ef0303]d[/color][color=#ee0303]e[/color][color=#ee0303]c[/color][color=#ed0404].[/color][color=#ed0404].[/color][color=#ec0404].[/color][color=#ec0404].[/color][color=#eb0404].[/color][color=#eb0404].[/color][color=#ea0404].[/color][color=#ea0404].[/color][color=#e90404].[/color][color=#e80404].[/color][color=#e80505].[/color][color=#e70505].[/color][color=#e70505]V[/color][color=#e60505]_[/color][color=#e60505]M[/color][color=#e50505]P[/color][color=#e50505]E[/color][color=#e40505]G[/color][color=#e40505]-[/color][color=#e30505]4[/color] [color=#e20606]/[/color] [color=#e10606]A[/color][color=#e10606]V[/color][color=#e00606]C[/color] [color=#df0606]/[/color] [color=#de0606]H[/color][color=#de0707]2[/color][color=#dd0707]6[/color][color=#dd0707]4[/color]
[color=#dc0707]D[/color][color=#dc0707]u[/color][color=#db0707]r[/color][color=#db0707]a[/color][color=#da0707]t[/color][color=#da0707]i[/color][color=#d90707]o[/color][color=#d90808]n[/color][color=#d80808].[/color][color=#d80808].[/color][color=#d70808].[/color][color=#d70808].[/color][color=#d60808].[/color][color=#d60808].[/color][color=#d50808].[/color][color=#d50808].[/color][color=#d40808].[/color][color=#d40909].[/color][color=#d30909]1[/color] [color=#d20909]h[/color] [color=#d10909]5[/color][color=#d00909]8[/color] [color=#cf0909]m[/color][color=#cf0909]i[/color][color=#ce0a0a]n[/color]
[color=#ce0a0a]B[/color][color=#cd0a0a]i[/color][color=#cd0a0a]t[/color] [color=#cc0a0a]r[/color][color=#cb0a0a]a[/color][color=#cb0a0a]t[/color][color=#ca0a0a]e[/color][color=#ca0a0a].[/color][color=#c90b0b].[/color][color=#c90b0b].[/color][color=#c80b0b].[/color][color=#c80b0b].[/color][color=#c70b0b].[/color][color=#c70b0b].[/color][color=#c60b0b].[/color][color=#c60b0b].[/color][color=#c50b0b].[/color][color=#c50b0b].[/color][color=#c40c0c].[/color][color=#c40c0c]1[/color][color=#c30c0c]6[/color][color=#c30c0c]0[/color][color=#c20c0c]6[/color] [color=#c10c0c]k[/color][color=#c10c0c]b[/color] [color=#c00c0c]/[/color] [color=#bf0d0d]s[/color]
[color=#be0d0d]W[/color][color=#be0d0d]i[/color][color=#bd0d0d]d[/color][color=#bd0d0d]t[/color][color=#bd0d0d]h[/color][color=#bd0d0d].[/color][color=#bd0d0d].[/color][color=#bd0d0d].[/color][color=#bd0d0d].[/color][color=#bd0d0d].[/color][color=#bd0d0d].[/color][color=#bd0d0d].[/color][color=#bd0d0d].[/color][color=#bd0d0d].[/color][color=#bd0d0d].[/color][color=#bc0d0d].[/color][color=#bc0d0d].[/color][color=#bc0d0d].[/color][color=#bc0d0d].[/color][color=#bc0d0d]1[/color][color=#bc0d0d]0[/color][color=#bc0d0d]2[/color][color=#bc0d0d]4[/color] [color=#bc0c0c]p[/color][color=#bc0c0c]i[/color][color=#bc0c0c]x[/color][color=#bc0c0c]e[/color][color=#bc0c0c]l[/color][color=#bc0c0c]s[/color]
[color=#bc0c0c]H[/color][color=#bc0c0c]e[/color][color=#bc0c0c]i[/color][color=#bc0c0c]g[/color][color=#bc0c0c]h[/color][color=#bc0c0c]t[/color][color=#bc0c0c].[/color][color=#bc0c0c].[/color][color=#bc0c0c].[/color][color=#bc0c0c].[/color][color=#bc0c0c].[/color][color=#bb0c0c].[/color][color=#bb0c0c].[/color][color=#bb0c0c].[/color][color=#bb0c0c].[/color][color=#bb0c0c].[/color][color=#bb0c0c].[/color][color=#bb0c0c].[/color][color=#bb0c0c].[/color][color=#bb0c0c]4[/color][color=#bb0c0c]5[/color][color=#bb0c0c]6[/color] [color=#bb0c0c]p[/color][color=#bb0c0c]i[/color][color=#bb0c0c]x[/color][color=#bb0c0c]e[/color][color=#bb0c0c]l[/color][color=#bb0c0c]s[/color]
[color=#bb0c0c]F[/color][color=#bb0c0c]r[/color][color=#bb0c0c]a[/color][color=#bb0c0c]m[/color][color=#bb0c0c]e[/color] [color=#bb0c0c]r[/color][color=#bb0c0c]a[/color][color=#ba0b0b]t[/color][color=#ba0b0b]e[/color][color=#ba0b0b].[/color][color=#ba0b0b].[/color][color=#ba0b0b].[/color][color=#ba0b0b].[/color][color=#ba0b0b].[/color][color=#ba0b0b].[/color][color=#ba0b0b].[/color][color=#ba0b0b]2[/color][color=#ba0b0b]3[/color][color=#ba0b0b].[/color][color=#ba0b0b]9[/color][color=#ba0b0b]7[/color][color=#ba0b0b]0[/color][color=#ba0b0b]4[/color] [color=#ba0b0b]F[/color][color=#ba0b0b]P[/color][color=#ba0b0b]S[/color]
[color=#ba0b0b]W[/color][color=#ba0b0b]r[/color][color=#ba0b0b]i[/color][color=#ba0b0b]t[/color][color=#ba0b0b]i[/color][color=#ba0b0b]n[/color][color=#b90b0b]g[/color] [color=#b90b0b]C[/color][color=#b90b0b]o[/color][color=#b90b0b]d[/color][color=#b90b0b]e[/color][color=#b90b0b]c[/color][color=#b90b0b].[/color][color=#b90b0b].[/color][color=#b90b0b].[/color][color=#b90b0b].[/color][color=#b90b0b]x[/color][color=#b90b0b]2[/color][color=#b90b0b]6[/color][color=#b90b0b]4[/color]

[color=#b90b0b]A[/color][color=#b90a0a]u[/color][color=#b90a0a]d[/color][color=#b90a0a]i[/color][color=#b90a0a]o[/color][color=#b90a0a]#[/color][color=#b90a0a]#[/color]
[color=#b90a0a]F[/color][color=#b90a0a]o[/color][color=#b90a0a]r[/color][color=#b80a0a]m[/color][color=#b80a0a]a[/color][color=#b80a0a]t[/color][color=#b80a0a].[/color][color=#b80a0a].[/color][color=#b80a0a].[/color][color=#b80a0a].[/color][color=#b80a0a].[/color][color=#b80a0a].[/color][color=#b80a0a].[/color][color=#b80a0a].[/color][color=#b80a0a].[/color][color=#b80a0a].[/color][color=#b80a0a].[/color][color=#b80a0a].[/color][color=#b80a0a]A[/color][color=#b70a0a]A[/color][color=#b70a0a]C[/color]
[color=#b70a0a]C[/color][color=#b70b0b]o[/color][color=#b70b0b]d[/color][color=#b70b0b]e[/color][color=#b60b0b]c[/color][color=#b60b0b].[/color][color=#b60b0b].[/color][color=#b60b0b].[/color][color=#b60b0b].[/color][color=#b60b0b].[/color][color=#b50b0b].[/color][color=#b50b0b].[/color][color=#b50b0b].[/color][color=#b50b0b].[/color][color=#b50c0c].[/color][color=#b50c0c].[/color][color=#b40c0c].[/color][color=#b40c0c].[/color][color=#b40c0c]A[/color][color=#b40c0c]A[/color][color=#b40c0c]C[/color] [color=#b30c0c]/[/color] [color=#b30c0c]m[/color][color=#b30c0c]p[/color][color=#b30c0c]4[/color][color=#b30d0d]a[/color]
[color=#b20d0d]C[/color][color=#b20d0d]h[/color][color=#b20d0d]a[/color][color=#b20d0d]n[/color][color=#b20d0d]n[/color][color=#b20d0d]e[/color][color=#b10d0d]l[/color][color=#b10d0d].[/color][color=#b10d0d].[/color][color=#b10d0d].[/color][color=#b10d0d].[/color][color=#b10d0d].[/color][color=#b10e0e].[/color][color=#b00e0e].[/color][color=#b00e0e].[/color][color=#b00e0e].[/color][color=#b00e0e].[/color][color=#b00e0e].[/color][color=#b00e0e]2[/color][color=#af0e0e].[/color][color=#af0e0e]0[/color]
[color=#af0e0e]B[/color][color=#af0e0e]i[/color][color=#af0e0e]t[/color] [color=#ae0f0f]R[/color][color=#ae0f0f]a[/color][color=#ae0f0f]t[/color][color=#ae0f0f]e[/color][color=#ae0f0f].[/color][color=#ae0f0f].[/color][color=#ad0f0f].[/color][color=#ad0f0f].[/color][color=#ad0f0f].[/color][color=#ad0f0f].[/color][color=#ad0f0f].[/color][color=#ad0f0f].[/color][color=#ac1010].[/color][color=#ac1010].[/color][color=#ac1010].[/color][color=#ac1010].[/color][color=#ac1010]9[/color][color=#ac1010]6[/color] [color=#ab1010]k[/color][color=#ab1010]b[/color][color=#ab1010]/[/color][color=#ab1010]s[/color]
[color=#ab1010]S[/color][color=#aa1010]a[/color][color=#aa1111]m[/color][color=#aa1111]p[/color][color=#aa1111]l[/color][color=#aa1111]e[/color] [color=#aa1111]r[/color][color=#a91111]a[/color][color=#a91111]t[/color][color=#a91111]e[/color][color=#a91111].[/color][color=#a91111].[/color][color=#a91111].[/color][color=#a81111].[/color][color=#a81212].[/color][color=#a81212]4[/color][color=#a81212]4[/color][color=#a81212]1[/color][color=#a81212]0[/color][color=#a71212]0[/color][color=#a71212].[/color][color=#a71212]0[/color] [color=#a71212]H[/color][color=#a71212]z[/color]
[color=#a61212]L[/color][color=#a61212]a[/color][color=#a61313]n[/color][color=#a61313]g[/color][color=#a61313]u[/color][color=#a61313]a[/color][color=#a51313]g[/color][color=#a51313]e[/color][color=#a51313].[/color][color=#a51313].[/color][color=#a51313].[/color][color=#a51313].[/color][color=#a41313].[/color][color=#a41313].[/color][color=#a41313].[/color][color=#a41414].[/color][color=#a41414].[/color][color=#a41414]H[/color][color=#a31414]i[/color][color=#a31414]n[/color][color=#a31414]d[/color][color=#a31414]i[/color]


[url=http://imgchili.net/show/111991/111991754_screenshot_20.png][img]http://t13.imgchili.net/111991/111991754_screenshot_20.jpg[/img][/url]

[url=http://imgchili.net/show/111991/111991730_screenshot_17.png][img]http://t13.imgchili.net/111991/111991730_screenshot_17.jpg[/img][/url]

[url=http://imgchili.net/show/111991/111991808_screenshot_22.png][img]http://t13.imgchili.net/111991/111991808_screenshot_22.jpg[/img][/url]

[url=http://imgchili.net/show/111991/111991810_screenshot_24.png][img]http://t13.imgchili.net/111991/111991810_screenshot_24.jpg[/img][/url]

[url=http://imgchili.net/show/111991/111991844_screenshot_23.png][img]http://t13.imgchili.net/111991/111991844_screenshot_23.jpg[/img][/url]

[url=http://imgchili.net/show/111991/111991825_screenshot_25.png][img]http://t13.imgchili.net/111991/111991825_screenshot_25.jpg[/img][/url]

[url=http://imgchili.net/show/111991/111991845_screenshot_26.png][img]http://t13.imgchili.net/111991/111991845_screenshot_26.jpg[/img][/url]

[/center] ]]>
PremiumBukkake 17 09 08 Ria Sunn Round 2 XXX 480p MP4-BIUK http://glodls.to/torrent.php?id=2811617 http://glodls.to/torrent.php?id=2811617 Fri, 22 Sep 2017 16:53:02 +0100 Adult XXX [b]Screenshots:[/b]

[url]http://imgking.co/imgs-59c53ddadf10c.html[/url]

File Size : 188 MiB
Duration : 22mn 55s
Video : h264, yuv420p, 854x480p, 1024 Kbps
Audio : aac , 2 ch, stereo , 128 Kbps ]]>
[FuckingAwesome] Cleo Vixen - First-Time Encounter (18 09 2017) http://glodls.to/torrent.php?id=2811616 http://glodls.to/torrent.php?id=2811616 Fri, 22 Sep 2017 16:52:50 +0100 Adult XXX
Genre :- [All Sex, Blowjob, 480p]

Screenshot :-

[url=http://imgtorrnt.in/view.php?id=MAbJ4e6][color=green] http://imgtorrnt.in/view.php?id=MAbJ4e6 [/color] [/url]

[url=http://imgtorrnt.in/view.php?id=0wKq7p8][color=green] http://imgtorrnt.in/view.php?id=0wKq7p8 [/color] [/url]

[img]http://s4.pic4you.ru/y2017/09-19/27034/6107458.jpeg[/img]


BTC Address - 1J6iRHTWiXg2Gjhg7ggtBrY87buscQ5ngB

]]>
PremiumBukkake 17 09 15 Ria Sunn Round 3 XXX 480p MP4-BIUK http://glodls.to/torrent.php?id=2811614 http://glodls.to/torrent.php?id=2811614 Fri, 22 Sep 2017 16:50:25 +0100 Adult XXX
[b]Screenshots:[/b]

[url]http://imgking.co/imgs-59c53f514f841.html[/url]

[url]http://imgking.co/imgs-59c53f514cafc.html[/url]

[url]http://imgking.co/imgs-59c53f5148acb.html[/url]

[url]http://imgking.co/imgs-59c53d531f73e.html[/url]

File Size : 197 MiB
Duration : 23mn 26s
Video : h264, yuv420p, 854x480p, 1024 Kbps
Audio : aac , 2 ch, stereo , 128 Kbps ]]>
The.Houses.October.Built.2.2017.720p.WEB-DL.DD5.1.x264-BDP http://glodls.to/torrent.php?id=2811613 http://glodls.to/torrent.php?id=2811613 Fri, 22 Sep 2017 16:49:47 +0100 Movies
[b]ImDb: [URL]http://www.imdb.com/title/tt7068818[/URL][/b]

[url=https://www.sparrowpics.com/image/kbFon][img]https://www.sparrowpics.com/images/2017/07/04/kbFon.png[/img][/url]

[b]Complete name : The.Houses.October.Built.2.2017.720p.WEB-DL.DD5.1.x264-BDP.mkv
Format : Matroska
Format version : Version 2
File size : 1.36 GiB
Duration : 1 h 41 min
Overall bit rate : 1 929 kb/s
Encoded date : UTC 2017-09-22 12:09:30
Writing application : mkvmerge v10.0.0 ('To Drown In You') 64bit
Writing library : libebml v1.3.4 + libmatroska v1.4.5

Video
ID : 1
Format : AVC
Format/Info : Advanced Video Codec
Format profile : High@L4.1
Format settings, CABAC : Yes
Format settings, ReFrames : 5 frames
Codec ID : V_MPEG4/ISO/AVC
Duration : 1 h 41 min
Bit rate : 1 544 kb/s
Width : 1 280 pixels
Height : 720 pixels
Display aspect ratio : 16:9
Frame rate mode : Constant
Frame rate : 23.976 (24000/1001) FPS
Color space : YUV
Chroma subsampling : 4:2:0
Bit depth : 8 bits
Scan type : Progressive
Bits/(Pixel*Frame) : 0.070
Stream size : 1.09 GiB (80%)
Writing library : x264 core 148 r2744 b97ae06
Encoding settings : cabac=1 / ref=5 / deblock=1:-3:-3 / analyse=0x3:0x133 / me=esa / subme=7 / psy=1 / psy_rd=1.00:0.00 / mixed_ref=1 / me_range=16 / chroma_me=1 / trellis=1 / 8x8dct=1 / cqm=0 / deadzone=21,11 / fast_pskip=1 / chroma_qp_offset=-2 / threads=12 / lookahead_threads=2 / sliced_threads=0 / nr=0 / decimate=1 / interlaced=0 / bluray_compat=0 / constrained_intra=0 / bframes=3 / b_pyramid=2 / b_adapt=2 / b_bias=0 / direct=1 / weightb=1 / open_gop=0 / weightp=2 / keyint=240 / keyint_min=23 / scenecut=40 / intra_refresh=0 / rc_lookahead=40 / rc=2pass / mbtree=1 / bitrate=1544 / ratetol=1.0 / qcomp=0.60 / qpmin=0 / qpmax=69 / qpstep=4 / cplxblur=20.0 / qblur=0.5 / vbv_maxrate=62500 / vbv_bufsize=78125 / nal_hrd=none / filler=0 / ip_ratio=1.40 / aq=1:1.00
Default : Yes
Forced : No
Color range : Limited
Color primaries : BT.709
Transfer characteristics : BT.709
Matrix coefficients : BT.709

Audio
ID : 2
Format : AC-3
Format/Info : Audio Coding 3
Format settings, Endianness : Big
Codec ID : A_AC3
Duration : 1 h 41 min
Bit rate mode : Constant
Bit rate : 384 kb/s
Channel(s) : 6 channels
Channel positions : Front: L C R, Side: L R, LFE
Sampling rate : 48.0 kHz
Frame rate : 31.250 FPS (1536 spf)
Bit depth : 16 bits
Compression mode : Lossy
Stream size : 278 MiB (20%)
Language : English
Service kind : Complete Main
Default : Yes
Forced : No[/b]

[url=https://www.sparrowpics.com/image/kbJ5y][img]https://www.sparrowpics.com/images/2017/07/04/kbJ5y.png[/img][/url]

[URL=https://www.sparrowpics.com/image/wkZ4d][IMG]https://www.sparrowpics.com/images/2017/09/22/wkZ4d.th.jpg[/IMG][/URL]

[URL=https://www.sparrowpics.com/image/wk0m1][b]Click To View Screenshot[/b][/URL]

[URL=https://www.sparrowpics.com/image/wkiWH][b]Click To View Screenshot[/b][/URL]

[URL=https://www.sparrowpics.com/image/wk6zT][b]Click To View Screenshot[/b][/URL][/center] ]]>
[IKnowThatGirl - Mofos] Charity Crawford - Footjob and Pantyhose Play (21 09 2017) http://glodls.to/torrent.php?id=2811612 http://glodls.to/torrent.php?id=2811612 Fri, 22 Sep 2017 16:49:41 +0100 Adult XXX
Genre :- [POV, Couples Fantasies, Bathroom, All Sex, Foot Fetish, Doggystyle] 480p

Screenshot :-

[url=http://imgtorrnt.in/view.php?id=3ZmMSFF][color=green] http://imgtorrnt.in/view.php?id=3ZmMSFF [/color] [/url]

[url=http://imgtorrnt.in/view.php?id=1htiJAY][color=green] http://imgtorrnt.in/view.php?id=1htiJAY [/color] [/url]

[img]http://s4.pic4you.ru/y2017/09-18/27034/6107227.jpeg[/img]


BTC Address - 1J6iRHTWiXg2Gjhg7ggtBrY87buscQ5ngB

]]>
GirlsRimming 17 09 22 Angelina Brill After Party Rims 2 XXX 480p MP4-WEIRD http://glodls.to/torrent.php?id=2811609 http://glodls.to/torrent.php?id=2811609 Fri, 22 Sep 2017 16:48:08 +0100 Adult XXX
[b]Screenshots:[/b]

[url]http://imgking.co/imgs-59c53ec82c750.html[/url]

[url]http://imgking.co/imgs-59c53ec828ac4.html[/url]

[url]http://imgking.co/imgs-59c53ec81ec32.html[/url]

[url]http://imgking.co/imgs-59c53d664acef.html[/url]

File Size : 245 MiB
Duration : 29mn 34s
Video : h264, yuv420p, 854x480p, 1024 Kbps
Audio : aac , 2 ch, stereo , 128 Kbps ]]>
[PublicAgent/FakeHub]Lola Bulgari - Tourist Gets Multiple Orgasms in Car(NEW***09 22 2017) http://glodls.to/torrent.php?id=2811608 http://glodls.to/torrent.php?id=2811608 Fri, 22 Sep 2017 16:48:01 +0100 Adult XXX [center][URL=http://imgclick.net/fjjy6eho0m3p/Lola_Bulgari_thumb.jpeg.html][IMG]http://main.imgclick.net/i/01024/fjjy6eho0m3p_t.jpg[/IMG][/URL]
[size=4]

Lola Bulgari - Tourist Gets Multiple Orgasms in Car
Category: Hardcore, Blowjob, All Sex, Brunette, Big Tits
File size:312.77 MB
Duration: 00:27:07

[b]SCREENS:[/b]

[url]http://imgclick.net/4dc977qp2pej/Lola_Bulgari_v2.jpeg.html[/url]
[url]https://img.yt/img-59c53d3a0ca79.html[/url]

[b]SHOOT:[/b]
[url]http://damimage.com/img-59c53e2216d84.html[/url]
[/size]
[/center] ]]>
[MyDirtyMaid - BangBros] Rose Monroe - Horny Maid (18 09 2017) http://glodls.to/torrent.php?id=2811607 http://glodls.to/torrent.php?id=2811607 Fri, 22 Sep 2017 16:46:33 +0100 Adult XXX
Genre :- [Blowjob, All sex] 480p

Screenshot :-

[url=http://imgtorrnt.in/view.php?id=7gY9Y2i][color=green] http://imgtorrnt.in/view.php?id=7gY9Y2i [/color] [/url]

[url=http://imgtorrnt.in/view.php?id=JaG7YgZ][color=green] http://imgtorrnt.in/view.php?id=JaG7YgZ [/color] [/url]

[img]http://s4.pic4you.ru/y2017/09-18/27034/6106821.jpeg[/img]


BTC Address - 1J6iRHTWiXg2Gjhg7ggtBrY87buscQ5ngB

]]>
[Bang! Real Teens - Bang] Gia Page Shows Off Bubble-Butt And Teen Pussy Gets A Creampie (18 09 2017) http://glodls.to/torrent.php?id=2811606 http://glodls.to/torrent.php?id=2811606 Fri, 22 Sep 2017 16:43:22 +0100 Adult XXX
Genre :- [All sex, 18+ Teen, Creampie, Tattoo, Brunette, Internal Cumshot, Bubble Butt, 360p]

Screenshot :-

[url=http://imgtorrnt.in/view.php?id=VgCxPny][color=green] http://imgtorrnt.in/view.php?id=VgCxPny [/color] [/url]

[url=http://imgtorrnt.in/view.php?id=R3tQCQN][color=green] http://imgtorrnt.in/view.php?id=R3tQCQN [/color] [/url]

[img]http://s4.pic4you.ru/y2017/09-18/27034/6106801.jpeg[/img]


BTC Address - 1J6iRHTWiXg2Gjhg7ggtBrY87buscQ5ngB

]]>
[8thStreetLatinas] Mary Jean - Mary Jeans No Angel NEW** 22 Sept 2017) http://glodls.to/torrent.php?id=2811605 http://glodls.to/torrent.php?id=2811605 Fri, 22 Sep 2017 16:41:48 +0100 Adult XXX
Genre: Amateur, Big Tits Worship, Living Room, Outside, Beach, Indoors, Blowjob, Sex, Anal Play, Tittyfuck, Blowjob - POV, Ass Worship, 1 on 1

Duration: 00:36:32

[size=5][url=http://HotImage.uk/img-59c53c28ab0ab.html]http://HotImage.uk/img-59c53c28ab0ab.html[/url]

[url=http://HotImage.uk/img-59c53c28b1a5c.html]http://HotImage.uk/img-59c53c28b1a5c.html[/url]

[url=https://www.xxximagetpb.org/image/dIx81]https://www.xxximagetpb.org/image/dIx81[/url]

[url=http://HotImage.uk/img-59c53c28bcf27.html]http://HotImage.uk/img-59c53c28bcf27.html[/url][/size] ]]>
[Passion-HD] Janice Griffith (Her Lover’s Hands - 18 09 2017) http://glodls.to/torrent.php?id=2811604 http://glodls.to/torrent.php?id=2811604 Fri, 22 Sep 2017 16:40:13 +0100 Adult XXX
Genre :- [All sex, Brunette, Blowjob, Facial, Squirt, Tattoos, Hardcore, 480p]

Screenshot :-

[url=http://imgtorrnt.in/view.php?id=8cucLRQ][color=green] http://imgtorrnt.in/view.php?id=8cucLRQ [/color] [/url]

[url=http://imgtorrnt.in/view.php?id=MpxBW0T][color=green] http://imgtorrnt.in/view.php?id=MpxBW0T [/color] [/url]

[img]http://s4.pic4you.ru/y2017/09-18/27034/6106790.jpeg[/img]


BTC Address - 1J6iRHTWiXg2Gjhg7ggtBrY87buscQ5ngB

]]>
[MomsBangTeens - RealityKings] Chanel Preston- Ivy Aura - Helping My Stepmom Finish (18 09 2017) http://glodls.to/torrent.php?id=2811602 http://glodls.to/torrent.php?id=2811602 Fri, 22 Sep 2017 16:37:05 +0100 Adult XXX
Genre :- [Threesome (2 Females), All Sex, Finger Banging, Masturbation, Pussy Licking, Cheating, Big Tits Worship, Oral Train, 2 Girl Blowjob] 432p

Screenshot :-

[url=http://imgtorrnt.in/view.php?id=PImYcu5][color=green] http://imgtorrnt.in/view.php?id=PImYcu5 [/color] [/url]

[url=http://imgtorrnt.in/view.php?id=F3Csk6D][color=green] http://imgtorrnt.in/view.php?id=F3Csk6D [/color] [/url]

[img]http://s4.pic4you.ru/y2017/09-18/27034/6106753.jpeg[/img]


BTC Address - 1J6iRHTWiXg2Gjhg7ggtBrY87buscQ5ngB

]]>
Ghosts.of.the.Abyss.2003.iNTERNAL.BDRip.x264-PHASE http://glodls.to/torrent.php?id=2811601 http://glodls.to/torrent.php?id=2811601 Fri, 22 Sep 2017 16:36:00 +0100 Movies
[b]ImDb: [URL]http://www.imdb.com/title/tt0297144[/URL][/b]

[url=https://www.sparrowpics.com/image/kbFon][img]https://www.sparrowpics.com/images/2017/07/04/kbFon.png[/img][/url]

[b]Complete name : Ghosts.of.the.Abyss.2003.iNTERNAL.BDRip.x264-PHASE.mkv
Format : Matroska
Format version : Version 4 / Version 2
File size : 997 MiB
Duration : 1 h 31 min
Overall bit rate : 1 521 kb/s
Encoded date : UTC 2017-09-21 23:20:28
Writing application : mkvmerge v15.0.0 ('Duel with the Devil') 64-bit
Writing library : libebml v1.3.5 + libmatroska v1.4.5

Video
ID : 1
Format : AVC
Format/Info : Advanced Video Codec
Format profile : High@L3.1
Format settings, CABAC : Yes
Format settings, ReFrames : 5 frames
Codec ID : V_MPEG4/ISO/AVC
Duration : 1 h 31 min
Bit rate : 1 390 kb/s
Width : 720 pixels
Height : 406 pixels
Display aspect ratio : 16:9
Frame rate mode : Constant
Frame rate : 23.976 (24000/1001) FPS
Color space : YUV
Chroma subsampling : 4:2:0
Bit depth : 8 bits
Scan type : Progressive
Bits/(Pixel*Frame) : 0.198
Stream size : 911 MiB (91%)
Writing library : x264 core 152 r2851 ba24899
Encoding settings : cabac=1 / ref=5 / deblock=1:-3:-3 / analyse=0x3:0x113 / me=umh / subme=8 / psy=1 / psy_rd=1.00:0.25 / mixed_ref=1 / me_range=24 / chroma_me=1 / trellis=2 / 8x8dct=1 / cqm=0 / deadzone=21,11 / fast_pskip=1 / chroma_qp_offset=-4 / threads=13 / lookahead_threads=2 / sliced_threads=0 / nr=0 / decimate=1 / interlaced=0 / bluray_compat=0 / constrained_intra=0 / bframes=3 / b_pyramid=2 / b_adapt=1 / b_bias=0 / direct=3 / weightb=1 / open_gop=0 / weightp=2 / keyint=240 / keyint_min=24 / scenecut=40 / intra_refresh=0 / rc_lookahead=50 / rc=crf / mbtree=1 / crf=19.0 / qcomp=0.60 / qpmin=0 / qpmax=69 / qpstep=4 / ip_ratio=1.40 / aq=1:0.75
Default : Yes
Forced : No
Color range : Limited
Matrix coefficients : BT.709

Audio
ID : 2
Format : AAC
Format/Info : Advanced Audio Codec
Format profile : LC
Codec ID : A_AAC
Duration : 1 h 31 min
Bit rate : 129 kb/s
Channel(s) : 2 channels
Channel positions : Front: L R
Sampling rate : 48.0 kHz
Frame rate : 46.875 FPS (1024 spf)
Compression mode : Lossy
Delay relative to video : 9 ms
Stream size : 84.5 MiB (8%)
Language : English
Default : Yes
Forced : No

Menu
00:00:00.000 : en:00:00:00.000
00:03:39.970 : en:00:03:39.970
00:08:50.155 : en:00:08:50.155
00:15:02.276 : en:00:15:02.276
00:20:21.262 : en:00:20:21.262
00:25:28.736 : en:00:25:28.736
00:40:13.161 : en:00:40:13.161
00:47:40.107 : en:00:47:40.107
00:54:55.292 : en:00:54:55.292
00:56:33.015 : en:00:56:33.015
00:59:25.395 : en:00:59:25.395
01:07:29.379 : en:01:07:29.379
01:14:37.848 : en:01:14:37.848
01:24:20.138 : en:01:24:20.138
01:29:10.387 : en:01:29:10.387[/b]

[url=https://www.sparrowpics.com/image/kbJ5y][img]https://www.sparrowpics.com/images/2017/07/04/kbJ5y.png[/img][/url]

[URL=https://www.sparrowpics.com/image/wk3Db][IMG]https://www.sparrowpics.com/images/2017/09/22/wk3Db.th.jpg[/IMG][/URL]

[URL=https://www.sparrowpics.com/image/wkP13][b]Click To View Screenshot[/b][/URL]

[URL=https://www.sparrowpics.com/image/wkRTK][b]Click To View Screenshot[/b][/URL]

[URL=https://www.sparrowpics.com/image/wkYlX][b]Click To View Screenshot[/b][/URL][/center] ]]>
[ReadyOrNotHereICum / CumLouder]Clea Gaultier - Clea Gaultier sexual essence http://glodls.to/torrent.php?id=2811600 http://glodls.to/torrent.php?id=2811600 Fri, 22 Sep 2017 16:34:49 +0100 Adult XXX [center][URL=http://imageteam.org/img-59c53a5fa5678.html][IMG]http://imageteam.org/upload/small/2017/09/22/59c53a5fa563e.jpg[/IMG][/URL]
[size=4]

Clea Gaultier - Clea Gaultier: sexual essence
Category: Natural Tits, Big Dick, European, Small Tits, Nacho Vidal, Lingerie, Classy
File size: 326.83 Mb
Duration: 00:27:31

[b]SCREENS:[/b]

[url]http://imageteam.org/img-59c53a6c5f0e7.html[/url]
[url]https://xeimg.yt/img-59c53aa1a7847.html[/url]

[b]SHOOT:[/b]
[url]http://damimage.com/img-59c53b686bf2a.html[/url]
[/size]
[/center] ]]>
Ghosts.of.the.Abyss.2003.iNTERNAL.BDRip.x264-PHASE http://glodls.to/torrent.php?id=2811599 http://glodls.to/torrent.php?id=2811599 Fri, 22 Sep 2017 16:34:35 +0100 Movies [color=red][b]
Ghosts.of.the.Abyss.2003.iNTERNAL.BDRip.x264-PHASE

[/b][/color]


IMDb: http://www.imdb.com/title/tt0297144/





[url=https://boltimg.com/image/t52z][img]https://boltimg.com/images/t52z.png[/img][/url]



[color=green][b]
General

(Duration): 1h 31mn
(FileSize): 997 MiB



Audio

(Format): AAC - Advanced Audio Codec
(Codec): AAC LC



Video

(Format): AVC - Advanced Video Codec
(Media): video/H264
(Format): x264
(Resolution): 720x406 px
(AspectRatio): 16:9
(FrameRate): 23.976 fps




[/b][/color]


[url=https://boltimg.com/image/tzTE][img]https://boltimg.com/images/tzTE.png[/img][/url]



[color=purple][b](Click to enlarge)[/b][/color]

[url=https://boltimg.com/image/7Cp9O][img]https://boltimg.com/images/7Cp9O.th.jpg[/img][/url] [url=https://boltimg.com/image/7ClbS][img]https://boltimg.com/images/7ClbS.th.jpg[/img][/url] [url=https://boltimg.com/image/7C8RE][img]https://boltimg.com/images/7C8RE.th.jpg[/img][/url] [url=https://boltimg.com/image/7CXjz][img]https://boltimg.com/images/7CXjz.th.jpg[/img][/url] [url=https://boltimg.com/image/7CzIM][img]https://boltimg.com/images/7CzIM.th.jpg[/img][/url] [url=https://boltimg.com/image/7C0yZ][img]https://boltimg.com/images/7C0yZ.th.jpg[/img][/url]

[/center]
]]>
[LetsTryAnal] Alice Merches - Deep Anal for Ballet Booty NEW**Sep 26, 2017) http://glodls.to/torrent.php?id=2811598 http://glodls.to/torrent.php?id=2811598 Fri, 22 Sep 2017 16:33:51 +0100 Adult XXX
Genre: Anal, POV, Couples Fantasies, Sex, Doggystyle, Cowgirl, Reverse Cowgirl

Duration: 00:39:33

[size=5][url=http://HotImage.uk/img-59c53aaaa0ded.html]http://HotImage.uk/img-59c53aaaa0ded.html[/url]

[url=http://HotImage.uk/img-59c53aaaa94af.html]http://HotImage.uk/img-59c53aaaa94af.html[/url]

[url=https://www.xxximagetpb.org/image/dIpu5]https://www.xxximagetpb.org/image/dIpu5[/url]

[url=http://HotImage.uk/img-59c53aaab6454.html]http://HotImage.uk/img-59c53aaab6454.html[/url][/size]
]]>
[MilfHunter - RealityKings] Lauren Phillips - Showering Her With Cum (18 09 2017) http://glodls.to/torrent.php?id=2811597 http://glodls.to/torrent.php?id=2811597 Fri, 22 Sep 2017 16:33:49 +0100 Adult XXX
Genre :- [Amateur, Cheating, Big Tits Worship, Couples Fantasies, Outside, Shower, Blowjob, All Sex, Pussy Licking, Tittyfuck, Wet] 432p

Screenshot :-

[url=http://imgtorrnt.in/view.php?id=34d9Tla][color=green] http://imgtorrnt.in/view.php?id=34d9Tla [/color] [/url]

[url=http://imgtorrnt.in/view.php?id=A6XGigk][color=green] http://imgtorrnt.in/view.php?id=A6XGigk [/color] [/url]

[img]http://s4.pic4you.ru/y2017/09-18/27034/6106740.jpeg[/img]


BTC Address - 1J6iRHTWiXg2Gjhg7ggtBrY87buscQ5ngB

]]>
InTheCrack E1327 Jenna Sativa XXX 480p MP4-TK http://glodls.to/torrent.php?id=2811596 http://glodls.to/torrent.php?id=2811596 Fri, 22 Sep 2017 16:30:55 +0100 Adult XXX [b]Screenshots:[/b]

[url]http://imgking.co/imgs-59c539f95807d.html[/url]

File Size : 313 MiB
Duration : 37mn 49s
Video : h264, yuv420p, 854x480p, 1024 Kbps
Audio : aac , 2 ch, stereo , 128 Kbps ]]>
[Blacked] Riley Star (My Boyfriend Wants Me To Do It - 17 09 2017) http://glodls.to/torrent.php?id=2811595 http://glodls.to/torrent.php?id=2811595 Fri, 22 Sep 2017 16:30:33 +0100 Adult XXX
Genre :- Gonzo, IR, Blowjob, All Sex, 480p]

Screenshot :-

[url=http://imgtorrnt.in/view.php?id=WppusmR][color=green] http://imgtorrnt.in/view.php?id=WppusmR [/color] [/url]

[url=http://imgtorrnt.in/view.php?id=xK3a0pz][color=green] http://imgtorrnt.in/view.php?id=xK3a0pz [/color] [/url]

[img]http://s4.pic4you.ru/y2017/09-17/27034/6106618.jpeg[/img]


BTC Address - 1J6iRHTWiXg2Gjhg7ggtBrY87buscQ5ngB

]]>
College sex after ng school http://glodls.to/torrent.php?id=2811594 http://glodls.to/torrent.php?id=2811594 Fri, 22 Sep 2017 16:27:09 +0100 Adult XXX https://socialporn.online/2017/09/22/bangla-deshi-cute-hot-couple-homemade-fucking-on-webcam-2/
https://socialporn.online/2017/09/22/bangla-deshi-cute-hot-couple-homemade-fucking-on-webcam-3/
https://socialporn.online/2017/09/22/bangla-deshi-cute-hot-couple-homemade-fucking-on-webcam-4/ ]]>
Alex Ubago - ¿Qué pides tú? (2001) [Flac Tnt] http://glodls.to/torrent.php?id=2811593 http://glodls.to/torrent.php?id=2811593 Fri, 22 Sep 2017 16:26:22 +0100 Music
[img]http://torrent-stats.info/02af/9fc4a70.png[/img]
Flood by seedbox

[img]http://i3.imageban.ru/out/2017/09/16/0e5b4ef84d709d9b6882c7d9a2beaaa5.jpg[/img]

..:: Data ::..
Artist..........: Alex Ubago
Album...........: ¿Qué pides tú?
Label...........: DRO
Format..........: CD
Country.........: Spain
Released........: 2001
Genre...........: Pop
Style...........: Latin
Codec...........: FLAC -> --best -V
ID MusicBrainz..: 41bd1561-4ce6-4911-8b66-259d337c4998
Discogs.........: /release/6107262
Barcode.........: 809274066329

..:: Tracklist ::..
01.¿Que Pides Tu
02.A Gritos De Esperanza
03.¿Sabes
04.No Te Rindas
05.Hay Que Ver
06.Sin Miedo A Nada
07.Ahora Que No Estas
08.Por Esta Ciudad
09.Vuelves A Pensar
10.Dime Si No Es Amor


[img]http://i2.imageban.ru/out/2016/11/11/b7b5a863068fefc91283d506eb7f0aea.jpg[/img]

]]>
[Shemales-From-Hell]Adriana Rodrigues, Carol Sampaio - Hardcore http://glodls.to/torrent.php?id=2811591 http://glodls.to/torrent.php?id=2811591 Fri, 22 Sep 2017 16:16:08 +0100 Adult XXX [center][URL=http://imageteam.org/img-59c5155ed47b3.html][IMG]http://imageteam.org/upload/small/2017/09/22/59c5155ed477b.jpg[/IMG][/URL]
[size=4]

Adriana Rodrigues, Carol Sampaio - Hardcore
Category: Transsex, Shemale, Hardcore, Oral, Anal, Shemale Fuck Female
File size: 434 MB
Duration: 00:15:33

[b]SCREENS:[/b]

[url]http://imageteam.org/img-59c51568e9de6.html[/url]
[url]https://img.yt/img-59c5157d29941.html[/url]

[b]SHOOT:[/b]
[url]http://damimage.com/img-59c516303bcbf.html[/url]
[/size]
[/center] ]]>
BumsBesuch 17 09 21 Celina Davis XXX 480p MP4-TK http://glodls.to/torrent.php?id=2811590 http://glodls.to/torrent.php?id=2811590 Fri, 22 Sep 2017 16:12:17 +0100 Adult XXX [b]Screenshots:[/b]

[url]http://imgking.co/imgs-59c5355b57f65.html[/url]

File Size : 323 MiB
Duration : 39mn 14s
Video : h264, yuv420p, 854x480p, 1024 Kbps
Audio : aac , 2 ch, stereo , 128 Kbps ]]>
Boxing.2017.09.16.World.Boxing.Super.Series.Callum.Smith.vs.Erik.Skoglund.720p.HDTV.x264-GAMETiME http://glodls.to/torrent.php?id=2811589 http://glodls.to/torrent.php?id=2811589 Fri, 22 Sep 2017 16:11:05 +0100 TV
[url=https://www.sparrowpics.com/image/kbFon][img]https://www.sparrowpics.com/images/2017/07/04/kbFon.png[/img][/url]

[b]Complete name : Boxing.2017.09.16.World.Boxing.Super.Series.Callum.Smith.vs.Erik.Skoglund.720p.HDTV.x264-GAMETiME.mkv
Format : Matroska
Format version : Version 4 / Version 2
File size : 2.09 GiB
Duration : 1 h 15 min
Overall bit rate : 3 940 kb/s
Movie name : World Boxing Super Series Callum Smith vs Erik Skoglund-1940-20170919-cut
Encoded date : UTC 2017-09-22 14:57:38
Writing application : mkvmerge v15.0.0 ('Duel with the Devil') 64-bit
Writing library : libebml v1.3.5 + libmatroska v1.4.5

Video
ID : 1
Format : AVC
Format/Info : Advanced Video Codec
Format profile : High@L4.1
Format settings, CABAC : Yes
Format settings, ReFrames : 5 frames
Codec ID : V_MPEG4/ISO/AVC
Duration : 1 h 15 min
Bit rate : 3 553 kb/s
Width : 1 280 pixels
Height : 720 pixels
Display aspect ratio : 16:9
Frame rate mode : Constant
Frame rate : 50.000 FPS
Color space : YUV
Chroma subsampling : 4:2:0
Bit depth : 8 bits
Scan type : Progressive
Bits/(Pixel*Frame) : 0.077
Stream size : 1.88 GiB (90%)
Writing library : x264 core 152 r2851 ba24899
Encoding settings : cabac=1 / ref=5 / deblock=1:0:0 / analyse=0x3:0x113 / me=hex / subme=8 / psy=1 / psy_rd=1.00:0.00 / mixed_ref=1 / me_range=16 / chroma_me=1 / trellis=2 / 8x8dct=1 / cqm=0 / deadzone=21,11 / fast_pskip=1 / chroma_qp_offset=-2 / threads=12 / lookahead_threads=2 / sliced_threads=0 / nr=0 / decimate=1 / interlaced=0 / bluray_compat=0 / constrained_intra=0 / bframes=3 / b_pyramid=2 / b_adapt=1 / b_bias=0 / direct=3 / weightb=1 / open_gop=0 / weightp=2 / keyint=500 / keyint_min=50 / scenecut=40 / intra_refresh=0 / rc_lookahead=50 / rc=crf / mbtree=1 / crf=22.0 / qcomp=0.60 / qpmin=0 / qpmax=69 / qpstep=4 / vbv_maxrate=62500 / vbv_bufsize=78125 / crf_max=0.0 / nal_hrd=none / filler=0 / ip_ratio=1.40 / aq=1:1.00
Default : Yes
Forced : No
Color range : Limited
Color primaries : BT.709
Transfer characteristics : BT.709
Matrix coefficients : BT.709

Audio
ID : 2
Format : AC-3
Format/Info : Audio Coding 3
Format settings, Endianness : Big
Codec ID : A_AC3
Duration : 1 h 15 min
Bit rate mode : Constant
Bit rate : 384 kb/s
Channel(s) : 2 channels
Channel positions : Front: L R
Sampling rate : 48.0 kHz
Frame rate : 31.250 FPS (1536 spf)
Bit depth : 16 bits
Compression mode : Lossy
Delay relative to video : -114 ms
Stream size : 208 MiB (10%)
Language : English
Service kind : Complete Main
Default : Yes
Forced : No[/b]

[url=https://www.sparrowpics.com/image/kbJ5y][img]https://www.sparrowpics.com/images/2017/07/04/kbJ5y.png[/img][/url]

[URL=https://tv.sparrowpics.com/image/gJ0FY][IMG]https://tv.sparrowpics.com/images/2017/09/22/gJ0FY.th.jpg[/IMG][/URL]

[URL=https://tv.sparrowpics.com/image/gJW2T][b]Click To View Screenshot[/b][/URL]

[URL=https://tv.sparrowpics.com/image/gJXEb][b]Click To View Screenshot[/b][/URL]

[URL=https://tv.sparrowpics.com/image/gJ5K4][b]Click To View Screenshot[/b][/URL][/center] ]]>
[MySistersHotFriend - NaughtyAmerica] Dakota Skye (23057 - 07 08 2017) http://glodls.to/torrent.php?id=2811586 http://glodls.to/torrent.php?id=2811586 Fri, 22 Sep 2017 16:02:12 +0100 Adult XXX
Genre :- [Ball licking, Big Dick, Blonde, Blow Job, Cum in Mouth, Deepthroating, Facial, Hairy bush, Hairy Pussy, Hand Job, Natural Tits, Straight, Swallowing, Young] 360p

Screenshot :-

[url=http://imgtorrnt.in/view.php?id=whSX42A][color=green] View Screen 1 [/color] [/url]

[url=http://imgtorrnt.in/view.php?id=UPloqie][color=green] View Screen 2 [/color] [/url]

[img]http://s4.pic4you.ru/y2017/08-07/27034/6073433.jpeg[/img]

]]>
The Chris Gethard Show S03E05 720p HDTV x264-W4F http://glodls.to/torrent.php?id=2811545 http://glodls.to/torrent.php?id=2811545 Fri, 22 Sep 2017 16:00:18 +0100 TV http://www.tvrage.com/schedule.php?show_yesterday=1. ]]> The Chris Gethard Show S03E05 HDTV x264-W4F http://glodls.to/torrent.php?id=2811544 http://glodls.to/torrent.php?id=2811544 Fri, 22 Sep 2017 16:00:16 +0100 TV http://www.tvrage.com/schedule.php?show_yesterday=1. ]]> Racism without Racists Color-Blind Racism and the Persistence of Racial Inequality in America, 5th Edition/Eduardo Bonilla-Silva/2017/EPUB/Shunster http://glodls.to/torrent.php?id=2811543 http://glodls.to/torrent.php?id=2811543 Fri, 22 Sep 2017 16:00:16 +0100 Books
English|Non-Fiction| ISBN: 1442276223|377pg|501KB|RowmanLittlefield|


Eduardo Bonilla-Silva's acclaimed Racism without Racists documents how, beneath our contemporary conversation about race, there lies a full-blown arsenal of arguments, phrases, and stories that whites use to account for-and ultimately justify-racial inequalities.

The fifth edition of this provocative book makes clear that color blind racism is as insidious now as ever.

It features new material on our current racial climate, including the Black Lives Matter movement; a significantly revised chapter that examines the Obama presidency, the 2016 election, and Trump's presidency; and a new chapter addressing what readers can do to confront racism-both personally and on a larger structural level.

Eduardo Bonilla-Silva is an American political sociologist and professor of sociology at Duke University. ]]>
The Chris Gethard Show S03E06 HDTV x264-W4F http://glodls.to/torrent.php?id=2811542 http://glodls.to/torrent.php?id=2811542 Fri, 22 Sep 2017 16:00:14 +0100 TV http://www.tvrage.com/schedule.php?show_yesterday=1. ]]> The Chris Gethard Show S03E07 HDTV x264-W4F http://glodls.to/torrent.php?id=2811541 http://glodls.to/torrent.php?id=2811541 Fri, 22 Sep 2017 16:00:12 +0100 TV http://www.tvrage.com/schedule.php?show_yesterday=1. ]]> Caribbean Pirate Treasure S01E06 HDTV x264-W4F http://glodls.to/torrent.php?id=2811540 http://glodls.to/torrent.php?id=2811540 Fri, 22 Sep 2017 16:00:10 +0100 TV http://www.tvrage.com/schedule.php?show_yesterday=1. ]]> Caribbean Pirate Treasure S01E06 720p HDTV x264-W4F http://glodls.to/torrent.php?id=2811539 http://glodls.to/torrent.php?id=2811539 Fri, 22 Sep 2017 16:00:09 +0100 TV http://www.tvrage.com/schedule.php?show_yesterday=1. ]]> Adam Ruins Everything S02E09 Adam Ruins His Vacation 720p HDTV x264-W4F http://glodls.to/torrent.php?id=2811538 http://glodls.to/torrent.php?id=2811538 Fri, 22 Sep 2017 16:00:07 +0100 TV http://www.tvrage.com/schedule.php?show_yesterday=1. ]]> Adam Ruins Everything S02E09 Adam Ruins His Vacation HDTV x264-W4F http://glodls.to/torrent.php?id=2811537 http://glodls.to/torrent.php?id=2811537 Fri, 22 Sep 2017 16:00:05 +0100 TV http://www.tvrage.com/schedule.php?show_yesterday=1. ]]> [BlackAmbush] Torii (2017-01-07) http://glodls.to/torrent.php?id=2811536 http://glodls.to/torrent.php?id=2811536 Fri, 22 Sep 2017 15:59:01 +0100 Adult XXX
Genre :- Big Boobs, Blonde, Creampie, MILF, Interracial (IR) (BDWC), Blowjob, All Sex, 432p]

Screenshot :-

[url=http://imgtorrnt.in/view.php?id=EqnzKZ6][color=green] View Screen 1 [/color] [/url]

[url=http://imgtorrnt.in/view.php?id=qrLqufz][color=green] View Screen 2 [/color] [/url]

[img]http://s4.pic4you.ru/y2017/04-22/27034/6001629.jpeg[/img]

]]>
[BoxTruckSex] Jimena Lago (2017-08-06) http://glodls.to/torrent.php?id=2811535 http://glodls.to/torrent.php?id=2811535 Fri, 22 Sep 2017 15:55:36 +0100 Adult XXX
Genre :- [All Sex, Public Sex, Blowjob, 480p]

Screenshot :-

[url=http://imgtorrnt.in/view.php?id=QgPTPUd][color=green] View Screen 1 [/color] [/url]

[url=http://imgtorrnt.in/view.php?id=ovrl99K][color=green] View Screen 2 [/color] [/url]

[img]http://s4.pic4you.ru/y2017/08-06/27034/6072827.jpeg[/img]

]]>
The.Curse.of.King.Tuts.Tomb.2006.720p.BluRay.x264-x0r http://glodls.to/torrent.php?id=2811534 http://glodls.to/torrent.php?id=2811534 Fri, 22 Sep 2017 15:54:33 +0100 Movies
[b]ImDb: [URL]http://www.imdb.com/title/tt0464799[/URL][/b]

[url=https://www.sparrowpics.com/image/kbFon][img]https://www.sparrowpics.com/images/2017/07/04/kbFon.png[/img][/url]

[b]Complete name : The.Curse.of.King.Tuts.Tomb.2006.720p.BluRay.x264-x0r.mkv
Format : Matroska
Format version : Version 4 / Version 2
File size : 2.98 GiB
Duration : 2 h 21 min
Overall bit rate : 3 010 kb/s
Movie name : The.Curse.of.King.Tuts.Tomb.2006.720p.BluRay.x264-x0r
Encoded date : UTC 2017-09-22 15:04:34
Writing application : mkvmerge v7.7.0 ('Six Voices') 64bit built on Mar 1 2015 01:50:05
Writing library : libebml v1.3.1 + libmatroska v1.4.2

Video
ID : 1
Format : AVC
Format/Info : Advanced Video Codec
Format profile : High@L4
Format settings, CABAC : Yes
Format settings, ReFrames : 8 frames
Codec ID : V_MPEG4/ISO/AVC
Duration : 2 h 21 min
Bit rate : 2 560 kb/s
Width : 1 280 pixels
Height : 720 pixels
Display aspect ratio : 16:9
Frame rate mode : Constant
Frame rate : 23.976 (24000/1001) FPS
Color space : YUV
Chroma subsampling : 4:2:0
Bit depth : 8 bits
Scan type : Progressive
Bits/(Pixel*Frame) : 0.116
Stream size : 2.53 GiB (85%)
Writing library : x264 core 142 r2389 956c8d8
Encoding settings : cabac=1 / ref=8 / deblock=1:-2:-2 / analyse=0x3:0x113 / me=umh / subme=9 / psy=1 / psy_rd=1.00:0.25 / mixed_ref=1 / me_range=32 / chroma_me=1 / trellis=2 / 8x8dct=1 / cqm=0 / deadzone=21,11 / fast_pskip=1 / chroma_qp_offset=-4 / threads=12 / lookahead_threads=1 / sliced_threads=0 / nr=0 / decimate=1 / interlaced=0 / bluray_compat=0 / constrained_intra=0 / bframes=4 / b_pyramid=2 / b_adapt=2 / b_bias=0 / direct=3 / weightb=1 / open_gop=0 / weightp=2 / keyint=240 / keyint_min=24 / scenecut=40 / intra_refresh=0 / rc_lookahead=40 / rc=2pass / mbtree=1 / bitrate=2560 / ratetol=1.0 / qcomp=0.60 / qpmin=0 / qpmax=69 / qpstep=4 / cplxblur=20.0 / qblur=0.5 / vbv_maxrate=20000 / vbv_bufsize=25000 / nal_hrd=none / filler=0 / ip_ratio=1.40 / aq=1:1.00
Language : English
Default : Yes
Forced : No
Color range : Limited
Color primaries : BT.709
Transfer characteristics : BT.709
Matrix coefficients : BT.709

Audio
ID : 2
Format : AC-3
Format/Info : Audio Coding 3
Format settings, Endianness : Big
Codec ID : A_AC3
Duration : 2 h 21 min
Bit rate mode : Constant
Bit rate : 448 kb/s
Channel(s) : 6 channels
Channel positions : Front: L C R, Side: L R, LFE
Sampling rate : 48.0 kHz
Frame rate : 31.250 FPS (1536 spf)
Bit depth : 16 bits
Compression mode : Lossy
Delay relative to video : -5 ms
Stream size : 454 MiB (15%)
Title : Surround
Language : English
Service kind : Complete Main
Default : Yes
Forced : No

Text
ID : 3
Format : UTF-8
Codec ID : S_TEXT/UTF8
Codec ID/Info : UTF-8 Plain Text
Duration : 2 h 21 min
Bit rate : 51 b/s
Count of elements : 1473
Stream size : 53.2 KiB (0%)
Language : English
Default : Yes
Forced : No

Menu
00:00:00.000 : :Chapter 1
00:14:02.842 : :Chapter 2
00:27:40.159 : :Chapter 3
00:42:32.550 : :Chapter 4
00:59:42.579 : :Chapter 5
01:11:25.281 : :Chapter 6
01:24:58.594 : :Chapter 7
01:38:42.417 : :Chapter 8
01:53:10.784 : :Chapter 9
02:07:21.634 : :Chapter 10
02:20:58.951 : :Chapter 11[/b]

[url=https://www.sparrowpics.com/image/kbJ5y][img]https://www.sparrowpics.com/images/2017/07/04/kbJ5y.png[/img][/url]

[URL=https://www.sparrowpics.com/image/wk1wt][IMG]https://www.sparrowpics.com/images/2017/09/22/wk1wt.th.jpg[/IMG][/URL]

[URL=https://www.sparrowpics.com/image/wkJYZ][b]Click To View Screenshot[/b][/URL]

[URL=https://www.sparrowpics.com/image/wkLbx][b]Click To View Screenshot[/b][/URL]

[URL=https://www.sparrowpics.com/image/wkMkN][b]Click To View Screenshot[/b][/URL][/center] ]]>
Susie Up Close and Personal [X-Art] Susie aka Lola- Lara- Dido Angel http://glodls.to/torrent.php?id=2811533 http://glodls.to/torrent.php?id=2811533 Fri, 22 Sep 2017 15:52:19 +0100 Adult XXX
Genre :- [Oral, All Sex, 544p]

Screenshot :-

[url=http://imgtorrnt.in/view.php?id=5DYp43K][color=green] View Screen 1 [/color] [/url]

[url=http://imgtorrnt.in/view.php?id=M1yx7yl][color=green] View Screen 2 [/color] [/url]

[img]http://s4.pic4you.ru/y2017/08-07/27034/6073360.jpeg[/img]

]]>
FakeDrivingSchool.17.09.22.Jasmine.Lau.XXX.1080p.MP4-KTR http://glodls.to/torrent.php?id=2811530 http://glodls.to/torrent.php?id=2811530 Fri, 22 Sep 2017 15:49:34 +0100 Adult XXX
{Duration} : 41 min 47 s
{Format} : MPEG-4
{Resolution} : 1920 x 1080 pixels
{Aspect Ratio} : 16:9
{Frame Rate} : 25.000 fps

[b]Thumbnails : -[/b]


[URL=https://www.sizzlingclicks.com/image/hm9dZ][IMG]https://www.sizzlingclicks.com/images/2017/09/22/hm9dZ.th.jpg[/IMG][/URL]
[b][URL]https://www.sizzlingclicks.com/image/hm9dZ[/URL][/b]
[b][URL]https://www.sizzlingclicks.com/image/hmGs7[/URL][/b]
[b][URL]https://www.sizzlingclicks.com/image/hmmzd[/URL][/b]
[b][URL]https://www.sizzlingclicks.com/image/hms5i[/URL][/b] ]]>
[EuroTeenErotica - DDFNetwork] Melody Petite - Squirting Siren Petite Teen Gets Her Pussy Pounded http://glodls.to/torrent.php?id=2811529 http://glodls.to/torrent.php?id=2811529 Fri, 22 Sep 2017 15:49:05 +0100 Adult XXX
Genre :- [Ball licking, Blowjob, Cum in mouth, Handjob, Hardcore, Latina, Medium tits, Natural tits, Squirting, Teen] 360p

Screenshot :-

[url=http://imgtorrnt.in/view.php?id=ReMRdTp][color=green] View Screen 1 [/color] [/url]

[url=http://imgtorrnt.in/view.php?id=W1ttuRc][color=green] View Screen 2 [/color] [/url]

[img]http://s4.pic4you.ru/y2017/08-07/27034/6073351.jpeg[/img]

]]>
[FootsieBabes - 21Sextury] Rina Ellis (Wild Ride) http://glodls.to/torrent.php?id=2811525 http://glodls.to/torrent.php?id=2811525 Fri, 22 Sep 2017 15:45:56 +0100 Adult XXX
Genre :- Brunette, Natural Tits, Tatooed, Foot Fetish, Oral, Hardcore, Cumshot] 544p

Screenshot :-

[url=http://imgtorrnt.in/view.php?id=4RHp1B7][color=green] View Screen 1 [/color] [/url]

[url=http://imgtorrnt.in/view.php?id=Gdt8BWR][color=green] View Screen 2 [/color] [/url]

[img]http://s4.pic4you.ru/y2017/08-06/27034/6072879.jpeg[/img]

]]>